Enable / Włącz Javascript
 Widok 
 Kategorie 
 Nitro Torrent w sieci 
 Top 10 użytkowników 
 Zbroja Boga 3: Chiński Zodiak 3D(OU) - Armour of God III: Chinese Zodiac *2012* [1080p Half Over-Under AC3 PLSUBBED BluRay x264-LEON 345]

Zbroja Boga 3: Chiński Zodiak 3D(OU) - Armour of God III: Chinese Zodiac *2012* [1080p Half Over-Under AC3 PLSUBBED BluRay x264-LEON 345]
Kategoria: » » »
Dodane: 03/10/2017
Rozmiar: 9.88 GB
Uploader: familybackpacks.com❱ Wędrowiec
seed(ów): 0
leecher(ów): 0
Pobrane: 2
Komentarzy: 0
Pobierz Torrent Pobierz Torrent
Pobierz [Magnet] Pobierz [Magnet]

Obserwuj
Raportuj

Film w wersji 3D Over-Under.
Do odtworzenia filmu WYMAGANY odpowiedni sprzęt (TV 3D).
=================================================
UWAGA!!! Napisy na stałe wrenderowane w film . Ci co mieli jakiekolwiek
kłopoty z napisami -Zapraszam !!!!!!!!
=========================================================

gatunek: Akcja
produkcja: Chiny, Hongkong
premiera: 12 grudnia 2012 (świat)
reżyseria: Jackie Chan
scenariusz: Jackie Chan

Asian Hawk, podróżuje po świcie w poszukiwaniu zestawu mistycznych artefaktów - 12 głów zwierząt z chińskiego zodiaku wykonanych z brązu

TÄ? KOPIE WYKONA? LEON 345 SPECJALNIE DLA WAS

General
Unique ID : 252499663201446210647180075354639164210 (0xBDF5AA8E18F5751BBA04F5ABCD0DE332)
Complete name : D:FilmyFilmy 3DSzablonWstawkaChinese_Zodiac_3D(Leon 345)Chinese Zodiac 3D(Leon 345).mkv
Format : Matroska
Format version : Version 2
File size : 9.88 GiB
Duration : 2h 3mn
Overall bit rate : 11.5 Mbps
Movie name : ChineseZodiac_3D.Title800.BlurayRip by Leon 345
Encoded date : UTC 2013-03-18 19:09:08
Writing application : mkvmerge v5.7.0 ('The Whirlwind') built on Jul 8 2012 20:08:51
Writing library : libebml v1.2.3 + libmatroska v1.3.0

Video
ID : 1
Format : AVC
Format/Info : Advanced Video Codec
Format profile : High@L4.1
Format settings, CABAC : Yes
Format settings, ReFrames : 2 frames
Codec ID : V_MPEG4/ISO/AVC
Duration : 2h 3mn
Bit rate : 10.6 Mbps
Width : 1 920 pixels
Height : 1 080 pixels
Display aspect ratio : 16:9 (2.40:1)
Frame rate mode : Constant
Frame rate : 23.976 fps
Color space : YUV
Chroma subsampling : 4:2:0
Bit depth : 8 bits
Scan type : Progressive
Bits/(Pixel*Frame) : 0.214
Stream size : 9.13 GiB (92%)
Title : Rip by Leon 345
Writing library : x264 core
Default : Yes
Forced : No
Color primaries : BT.709
Transfer characteristics : BT.709
Matrix coefficients : BT.709

Audio
ID : 2
Format : AC-3
Format/Info : Audio Coding 3
Mode extension : CM (complete main)
Format settings, Endianness : Big
Codec ID : A_AC3
Duration : 2h 3mn
Bit rate mode : Constant
Bit rate : 640 Kbps
Channel(s) : 6 channels
Channel positions : Front: L C R, Side: L R, LFE
Sampling rate : 48.0 KHz
Bit depth : 16 bits
Compression mode : Lossy
Stream size : 563 MiB (6%)
Title : AC3 5.1 Orginal
Language : Chinese
Default : Yes
Forced : No

Menu
00:00:00.000 : en:(01)00:00:00:000
00:11:28.020 : en:(02)00:11:28:020
00:18:16.428 : en:(03)00:18:16:428
00:25:15.347 : en:(04)00:25:15:347
00:33:39.559 : en:(05)00:33:39:559
00:44:12.107 : en:(06)00:44:12:107
00:55:15.311 : en:(07)00:55:15:311
01:10:04.241 : en:(08)01:10:04:241
01:16:55.777 : en:(09)01:16:55:777
01:25:34.087 : en:(10)01:25:34:087
01:39:21.705 : en:(11)01:39:21:705
01:50:38.423 : en:(12)01:50:38:423

Source [thx]:
A/V - Chinese Zodiac 2012 1080p RUS BluRay 3D MVC DTS HD MA 5 1 HDCLUB

zapraszam wszystkich chętnych i pamiętajcie udostępniać innym bo mało tego było a tak piloty już się nie kurzą. Dostajecie za darmo więc dajcie innym !!!

Dostępne napisy
Brak napisów
Szczegóły torrenta
Tracker http://fr33dom.h33t.com:3310/announce
Multitracker [ Pokaż ]
Kategoria: » » » [Zgłoś błąd]
Dodane 03-10-2017
Podziękowali:
0 użytkowników 
Podziękuj!
Pokaż / Ukryj pliki:
Nazwa pliku Rozmiar
Chinese Zodiac 3D(Leon 345).mkv 9.88 GB
aog3poster.jpg 149.46 KB
Poradnik Leona do filmów 3D.txt 22.82 KB
Open.txt 0.14 KB
4 plików
Brak komentarzy...