Enable / Włącz Javascript
 Widok 
 Kategorie 
 Nitro Torrent w sieci 
 Top 10 użytkowników 
 Tai Chi 0 3D(OU) *2012* [mini-HD.1080p.Over-Under.AC3.SUBBEDPL.BluRay.x264-SONDA] [AT-TEAM]

Tai Chi 0 3D(OU) *2012* [mini-HD.1080p.Over-Under.AC3.SUBBEDPL.BluRay.x264-SONDA] [AT-TEAM]
Kategoria: » » »
Dodane: 03/10/2017
Rozmiar: 3.95 GB
Uploader: familybackpacks.com❱ Wędrowiec
seed(ów): 0
leecher(ów): 0
Pobrane: -
Komentarzy: 0
Pobierz Torrent Pobierz Torrent
Pobierz [Magnet] Pobierz [Magnet]

Obserwuj
Raportuj

Film w wersji 3D Over-Under.
Do odtworzenia filmu WYMAGANY odpowiedni sprzęt (TV 3D)
=================================================
UWAGA: Napisy 3D na stałe wtopione w film. Zapraszam Wszystkich chętnych !!!!!!!
=====================================================================

Kopia mini-HD 1080p = 3,95 GB

gatunek: Dramat,Akcja
produkcja: Chiny,Hongkong
premiera: 31 sierpnia 2012 (świat)
reżyseria: Stephen Fung
scenariusz: Kuo-Fu Chen,Chia-lu Chang,Hsiao-tse Cheng

Obsada:
Qi Shu - Matka Yang Lu Chan
Daniel Wu - Szalony Mnich
Tony Leung Ka Fai - Mistrz Chen
Eddie Peng - Fang Zijing (Złoczyńca)
Angelababy - Chen Yunia (Piękność)
Yuan Xiaochao - Yang Lu Chan (Świr)
William Feng - Chen Zai-Yang (Zbuntowany Syn)
Jade Xu - Mistrzyni Xiu

Opis:
Yang (Yuan Xiaochao) jedzie do wioski Chen nauczyć się potężnego Tai Chi. W tej legendarnej osadzie wszyscy są mistrzami i wykorzystują ten styl w każdym aspekcie życia. Jednak tylko mieszkańcy wioski mogą posiadać moc Tai Chi więc nauka kogokolwiek z zewnątrz jest zabroniona. Wszystko ulega zmianie, gdy plan budowy linii kolejowej przewiduje trasę przez zamkniętą na świat wieś. Yang może okazać się ich jedyną szansą...

[Blu-ray] http://www.blu-ray.com/movies/Tai-Chi-0-Blu-ray/60912/

[IMDb] http://www.imdb.com/title/tt1981080/?ref_=fn_al_tt_1

BluRay 3D Rip (OU) - SONDA
===========================

General
Format : Matroska
Format version : Version 2
File size : 3.95 GiB
Duration : 1h 38mn
Encoding type : 2 pass
Overall bit rate mode : Variable
Overall bit rate : 5 768 Kbps
Movie name : TAI_CHI_0_3D.Bluray3D Rip by Sonda [AT-Team]
Encoded date : UTC 2014-02-06 10:43:50
Writing application : mkvmerge v5.7.0 ('The Whirlwind') built on Jul 8 2012 20:08:51
Writing library : libebml v1.2.3 + libmatroska v1.3.0

Video
ID : 1
Format : AVC
Format/Info : Advanced Video Codec
Format profile : High@L4.1
Format settings, CABAC : Yes
Format settings, ReFrames : 2 frames
Codec ID : V_MPEG4/ISO/AVC
Duration : 1h 38mn
Bit rate mode : Variable
Bit rate : 5 389 Kbps
Maximum bit rate : 40.0 Mbps
Width : 1 920 pixels
Height : 1 080 pixels
Display aspect ratio : 16:9 (2.39:1)
Frame rate mode : Constant
Frame rate : 23.976 fps
Color space : YUV
Chroma subsampling : 4:2:0
Bit depth : 8 bits
Scan type : Progressive
Bits/(Pixel*Frame) : 0.108
Stream size : 3.61 GiB (91%)
Title : BluRay 3D Rip by Sonda subbedPL - encoding 2 pass
Writing library : x264 core 112 r1834 a51816a
Default : Yes
Forced : No

Audio
ID : 2
Format : AC-3
Format/Info : Audio Coding 3
Mode extension : CM (complete main)
Format settings, Endianness : Big
Codec ID : A_AC3
Duration : 1h 38mn
Bit rate mode : Constant
Bit rate : 384 Kbps
Channel(s) : 6 channels
Channel positions : Front: L C R, Side: L R, LFE
Sampling rate : 48.0 KHz
Bit depth : 16 bits
Compression mode : Lossy
Stream size : 270 MiB (7%)
Title : AC3 5.1 Orginal
Language : Chinese
Default : Yes
Forced : No

Source:
A/V-BD3D
PLSUBBED - SONDA

Dostępne napisy
Brak napisów
Szczegóły torrenta
Tracker http://tracker.aletorrenty.pl:2710/announce
Multitracker [ Pokaż ]
Kategoria: » » » [Zgłoś błąd]
Dodane 03-10-2017
Podziękowali:
0 użytkowników 
Podziękuj!
Pokaż / Ukryj pliki:
Nazwa pliku Rozmiar
Tai_Chi_Zero_3D_miniHD_subbedPL(Sonda).mkv 3.95 GB
AT-TEAM old movie.jpg 140.78 KB
120166_image_front_3004.jpg 129.78 KB
AT-TEAM.jpg 36.66 KB
Read iNFO.txt 2.07 KB
Ale Torrenty Team enjoy !.url 0.11 KB
6 plików
Brak komentarzy...