Enable / Włącz Javascript
 Widok 
 Kategorie 
 Nitro Torrent w sieci 
 Top 10 użytkowników 
 Na uwięzi 3D(OU) - Kite *2014* [mini-HD.1080p.Half.Over-Under.AC3.PLSUBBED.BluRay.x264-SONDA]

Na uwięzi 3D(OU) - Kite *2014* [mini-HD.1080p.Half.Over-Under.AC3.PLSUBBED.BluRay.x264-SONDA]
Kategoria: » » »
Dodane: 03/10/2017
Rozmiar: 3.94 GB
Uploader: familybackpacks.com❱ Wędrowiec
seed(ów): 0
leecher(ów): 0
Pobrane: 2
Komentarzy: 0
Pobierz Torrent Pobierz Torrent
Pobierz [Magnet] Pobierz [Magnet]

Obserwuj
Raportuj
Film w wersji 3D Over-Under
Do odtworzenia filmu WYMAGANY odpowiedni sprzęt (TV 3D).
==========================================
UWAGA: Napisy na stałe wtopione w film. Zapraszam Wszystkich chętnych !!!!!!
=====================================================


Kopia mini-HD 1080p = 3,93 GB





gatunek: Akcja
produkcja: Meksyk,USA
premiera: 13 czerwca 2014 (świat)
reżyseria: Ralph Ziman


http://www.imdb.com/title/tt2044801/
http://www.filmweb.pl/film?id=632676


Obsada:

Samuel L. Jackson ... Karl Aker
Callan McAuliffe ... Oburi
India Eisley ... Sawa
Carl Beukes ... Vic Thornhill
Jaco Muller ... Kratsov
Cleo Rinkwest ... Margrit
Keci Eatock ... Młoda Sawa
Liam J. Stratton ... Ojciec Sawy

Opis:

Po brutalnym morderstwie rodziny Sawa zostaje przygarnięta przez kolegę ojca, który szkoli ją na zawodową zabójczynię.

Screeny:








General
Format                                   : Matroska
Format version                           : Version 2
File size                                : 3.94 GiB
Duration                                 : 1h 29mn
Overall bit rate mode                    : Variable
Overall bit rate                         : 6 292 Kbps
Movie name                               : Kite_3D.miniHD.1080p.subbedPL.Bluray3D [Rip by Sonda AT-Team]
Encoded date                             : UTC 2014-12-15 12:27:52
Writing application                      : mkvmerge v5.7.0 ('The Whirlwind') built on Jul  8 2012 20:08:51
Writing library                          : libebml v1.2.3 + libmatroska v1.3.0

Video
ID                                       : 1
Format                                   : AVC
Format/Info                              : Advanced Video Codec
Format profile                           : High@L4.1
Format settings, CABAC                   : Yes
Format settings, ReFrames                : 2 frames
Codec ID                                 : V_MPEG4/ISO/AVC
Duration                                 : 1h 29mn
Bit rate mode                            : Variable
Bit rate                                 : 5 527 Kbps
Maximum bit rate                         : 8 700 Kbps
Width                                    : 1 920 pixels
Height                                   : 1 080 pixels
Display aspect ratio                     : 2.39:1
Frame rate mode                          : Constant
Frame rate                               : 23.976 fps
Color space                              : YUV
Chroma subsampling                       : 4:2:0
Bit depth                                : 8 bits
Scan type                                : Progressive
Bits/(Pixel*Frame)                       : 0.111
Stream size                              : 3.46 GiB (88%)
Title                                    : Rip by Sonda subbedPL
Default                                  : Yes
Forced                                   : No

Audio
ID                                       : 2
Format                                   : AC-3
Format/Info                              : Audio Coding 3
Mode extension                           : CM (complete main)
Format settings, Endianness              : Big
Codec ID                                 : A_AC3
Duration                                 : 1h 29mn
Bit rate mode                            : Constant
Bit rate                                 : 640 Kbps
Channel(s)                               : 6 channels
Channel positions                        : Front: L C R, Side: L R, LFE
Sampling rate                            : 48.0 KHz
Bit depth                                : 16 bits
Compression mode                         : Lossy
Stream size                              : 410 MiB (10%)
Title                                    : AC3 5.1 Original
Language                                 : English
Default                                  : Yes
Forced                                   : No

Menu
00:00:00.000                             : en:(01)00:00:00:000
00:05:00.000                             : en:(02)00:05:00:000
00:10:00.000                             : en:(03)00:10:00:000
00:15:00.000                             : en:(04)00:15:00:000
00:20:00.000                             : en:(05)00:20:00:000
00:25:00.000                             : en:(06)00:25:00:000
00:30:00.000                             : en:(07)00:30:00:000
00:35:00.000                             : en:(08)00:35:00:000
00:40:00.000                             : en:(09)00:40:00:000
00:45:00.000                             : en:(10)00:45:00:000
00:50:00.000                             : en:(11)00:50:00:000
00:55:00.000                             : en:(12)00:55:00:000
01:00:00.000                             : en:(13)01:00:00:000
01:05:00.000                             : en:(14)01:05:00:000
01:10:00.000                             : en:(15)01:10:00:000
01:15:00.000                             : en:(16)01:15:00:000
01:20:00.000                             : en:(17)01:20:00:000
01:25:00.000                             : en:(18)01:25:00:000


Source:
A/V-Kite (2014) Blu-ray 3D [1080p] [3D/2D]




Dostępne napisy
Brak napisów
Szczegóły torrenta
Tracker http://tracker.aletorrenty.pl:2710/announce
Multitracker [ Pokaż ]
Kategoria: » » » [Zgłoś błąd]
Dodane 03-10-2017
Podziękowali:
0 użytkowników 
Podziękuj!
Pokaż / Ukryj pliki:
Nazwa pliku Rozmiar
iNFO/Torrent downloaded from -sonda torrents at torrentgarden.com.txt 0.36 KB
iNFO/Torrent downloaded from Sonda torrents at BTS.to.txt 0.11 KB
iNFO/Torrent Downloaded from sonda000 torrents at demonoid.ph.txt 0.02 KB
Kite_3D.miniHD.1080p.H-OU.subbedPL(Sonda).mkv 3.94 GB
81884.jpg 262.40 KB
Upload by Sonda [AT-TEAM].jpg 36.66 KB
Read iNFO.txt 2.07 KB
Ale Torrenty Team enjoy !.url 0.11 KB
8 plików
Brak komentarzy...