Enable / Włącz Javascript
 Widok 
 Kategorie 
 Nitro Torrent w sieci 
 Top 10 użytkowników 
 Julia X 3D(OU) *2011*[1080p Half Over-Under DTS 5 1 AC3 PLSUBBED BluRay x264]

Julia X 3D(OU) *2011*[1080p Half Over-Under DTS 5 1 AC3 PLSUBBED BluRay x264]
Kategoria: » » »
Dodane: 03/10/2017
Rozmiar: 8.27 GB
Uploader: familybackpacks.com❱ Wędrowiec
seed(ów): 0
leecher(ów): 0
Pobrane: -
Komentarzy: 0
Pobierz Torrent Pobierz Torrent
Pobierz [Magnet] Pobierz [Magnet]

Obserwuj
Raportuj
Julia X 3D *2011* PLSUBBED SONDA
===========================

Blu-ray http://www.blu-ray.com/movies/Julia-X-3D-Blu-ray/60047/

Film w wersji 3D Over-Under.
Do odtworzenia filmu WYMAGANY odpowiedni sprzęt (TV 3D)
=================================================
UWAGA: Napisy 3D na stałe wtopione w film. Zapraszam Wszystkich chętnych !!!!!!!
=============================================================

gatunek: Thriller
produkcja: USA
reżyseria: P.J. Pettiette
scenariusz: Matt Cunningha

Obsada:
Valerie Azlynn - Julia
Kevin Sorbo - Obcy
Alicia Leigh Willis - Jessica
Joel David Moore - Sam
Gregg Brazzel - Ojciec
Cassie Shea Watson - Matka Julii w młodości
Saxon Sharbino - Młoda Julia
Ving Rhames - Mężczyzna

Opis:
Julia poznaje człowieka w Internecie, postanawia spotkać się się z nim osobiście, jednak zostaje porwana i oznakowana literą "x" przez tego faceta.
Zaczyna się gra w kotka i myszkę, jednak historia ma nieoczekiwany koniec.

BluRay 3D Rip (OU)
===========================

General
Format                                   : Matroska
Format version                           : Version 2
File size                                : 8.27 GiB
Duration                                 : 1h 32mn
Encoding type                            : 2 pass
Overall bit rate mode                    : Variable
Overall bit rate                         : 12.9 Mbps
Movie name                               : JULIA_X.Bluray3D Rip by Sonda [AT-Team]
Encoded date                             : UTC 2014-02-21 12:23:00
Writing application                      : mkvmerge v5.7.0 ('The Whirlwind') built on Jul  8 2012 20:08:51
Writing library                          : libebml v1.2.3 + libmatroska v1.3.0

Video
ID                                       : 1
Format                                   : AVC
Format/Info                              : Advanced Video Codec
Format profile                           : High@L4.1
Format settings, CABAC                   : Yes
Format settings, ReFrames                : 2 frames
Codec ID                                 : V_MPEG4/ISO/AVC
Duration                                 : 1h 32mn
Bit rate mode                            : Variable
Bit rate                                 : 11.5 Mbps
Maximum bit rate                         : 40.0 Mbps
Width                                    : 1 920 pixels
Height                                   : 1 080 pixels
Display aspect ratio                     : 16:9 (1.85:1)
Frame rate mode                          : Constant
Frame rate                               : 23.976 fps
Color space                              : YUV
Chroma subsampling                       : 4:2:0
Bit depth                                : 8 bits
Scan type                                : Progressive
Bits/(Pixel*Frame)                       : 0.230
Stream size                              : 7.20 GiB (87%)
Title                                    : BluRay 3D PLSUBBED  encoding 2 pass
Writing library                          : x264 core 112 r1834 a51816a
Default                                  : Yes
Forced                                   : No

Audio #1
ID                                       : 2
Format                                   : AC-3
Format/Info                              : Audio Coding 3
Mode extension                           : CM (complete main)
Format settings, Endianness              : Big
Codec ID                                 : A_AC3
Duration                                 : 1h 32mn
Bit rate mode                            : Constant
Bit rate                                 : 640 Kbps
Channel(s)                               : 6 channels
Channel positions                        : Front: L C R, Side: L R, LFE
Sampling rate                            : 48.0 KHz
Bit depth                                : 16 bits
Compression mode                         : Lossy
Stream size                              : 421 MiB (5%)
Title                                    : AC3 5.1 English
Language                                 : English
Default                                  : Yes
Forced                                   : Yes

Audio #2
ID                                       : 3
Format                                   : DTS
Format/Info                              : Digital Theater Systems
Mode                                     : 16
Format settings, Endianness              : Big
Codec ID                                 : A_DTS
Duration                                 : 1h 32mn
Bit rate mode                            : Constant
Bit rate                                 : 768 Kbps
Channel(s)                               : 6 channels
Channel positions                        : Front: L C R, Side: L R, LFE
Sampling rate                            : 48.0 KHz
Bit depth                                : 16 bits
Compression mode                         : Lossy
Stream size                              : 506 MiB (6%)
Title                                    : DTS 5.1 Original
Language                                 : English
Default                                  : No
Forced                                   : No

Dostępne napisy
Brak napisów
Szczegóły torrenta
Tracker http://tracker.aletorrenty.pl:2710/announce
Multitracker [ Pokaż ]
Kategoria: » » » [Zgłoś błąd]
Dodane 03-10-2017
Podziękowali:
0 użytkowników 
Podziękuj!
Pokaż / Ukryj pliki:
Nazwa pliku Rozmiar
JULIA_X_3D_PLSUBBED(Sonda).mkv 8.27 GB
AT-TEAM old movie.jpg 140.78 KB
3333299202730.jpg 51.51 KB
AT-TEAM.jpg 36.66 KB
Read iNFO.txt 2.07 KB
Ale Torrenty Team enjoy !.url 0.11 KB
6 plików
Brak komentarzy...