Enable / Włącz Javascript
 Widok 
 Kategorie 
 Nitro Torrent w sieci 
 Top 10 użytkowników 
 Julia X (2011) 3D[BDRip x264 DTS][Napisy PL][Eng]

Julia X (2011) 3D[BDRip x264 DTS][Napisy PL][Eng]
Kategoria: » » »
Dodane: 03/10/2017
Rozmiar: 3.57 GB
Uploader: familybackpacks.com❱ Wędrowiec
seed(ów): 0
leecher(ów): 0
Pobrane: 4
Komentarzy: 0
Pobierz Torrent Pobierz Torrent
Pobierz [Magnet] Pobierz [Magnet]

Obserwuj
Raportuj
Film w wersji 3D H-Side by Side.

Kopia mini HD.

The file containing - sample!!!
Plik zawiera - sample !!!



gatunek: Thriller
produkcja: USA
reżyseria: P.J. Pettiette
scenariusz: Matt Cunningham
zdjęcia: Jason Goodman
czas: 01:31:59



Meeting a man on the Internet, Julia decides to see him in person,
only to get abducted and branded with the letter "x" by that guy.
A game of cat and mouse follows, but the story has an unexpected twist.

Julia poznaje człowieka w Internecie, postanawia spotkać się się z nim
osobiście, jednak zostaje porwana i oznakowana literą "x" przez tego faceta.
Zaczyna się gra w kotka i myszkę, jednak historia ma nieoczekiwany koniec.

Muszę przyznać, że tym razem "Herkules",jest nieźle obrabiany:D



Valerie Azlynn ... Julia
Kevin Sorbo ... The Stranger
Alicia Leigh Willis ... Jessica
Ving Rhames ... The Man  



Julia X (2011) 3D-alE13.mkv
Format                                   : Matroska
Format version                           : Version 4 / Version 2
File size                                : 3.51 GiB
Duration                                 : 1h 32mn
Overall bit rate                         : 5 459 Kbps
Movie name                               : Julia X (2011) 3D-alE13_AT-TEAM
Encoded date                             : UTC 2013-03-24 10:39:34
Writing application                      : mkvmerge v6.1.0
Writing library                          : libebml v1.3.0 + libmatroska v1.4.0

Video
ID                                       : 1
Format                                   : AVC
Format/Info                              : Advanced Video Codec
Format profile                           : High@L4.0
Format settings, CABAC                   : Yes
Format settings, ReFrames                : 2 frames
Codec ID                                 : V_MPEG4/ISO/AVC
Duration                                 : 1h 32mn
Bit rate                                 : 4 700 Kbps
Width                                    : 1 920 pixels
Height                                   : 1 080 pixels
Display aspect ratio                     : 16:9
Frame rate mode                          : Constant
Frame rate                               : 24.000 fps
Color space                              : YUV
Chroma subsampling                       : 4:2:0
Bit depth                                : 8 bits
Scan type                                : Progressive
Bits/(Pixel*Frame)                       : 0.094
Stream size                              : 2.95 GiB (84%)
Title                                    : Julia X (2011) 3D-alE13
Writing library                          : x264 core 112 r1834 a51816a
Language                                 : English


Audio
ID                                       : 2
Format                                   : DTS
Format/Info                              : Digital Theater Systems
Mode                                     : 16
Format settings, Endianness              : Big
Codec ID                                 : A_DTS
Duration                                 : 1h 32mn
Bit rate mode                            : Constant
Bit rate                                 : 768 Kbps
Channel(s)                               : 6 channels
Channel positions                        : Front: L C R, Side: L R, LFE
Sampling rate                            : 48.0 KHz
Bit depth                                : 16 bits
Compression mode                         : Lossy
Stream size                              : 506 MiB (14%)
Title                                    : Julia X (2011) 3D-alE13_DTS-5.1 ch
Language                                 : English

Text
ID                                       : 3
Format                                   : VobSub
Muxing mode                              : zlib
Codec ID                                 : S_VOBSUB
Codec ID/Info                            : The same subtitle format used on DVDs
Title                                    : Julia X (2011) 3D-alE13
Language                                 : Polish
Menu
00:00:00.000                             : en:00:00:00.000
00:08:47.819                             : en:00:08:47.819
00:17:22.333                             : en:00:17:22.333
00:22:38.899                             : en:00:22:38.899
00:31:29.596                             : en:00:31:29.596
00:40:31.304                             : en:00:40:31.304
00:46:01.717                             : en:00:46:01.717
00:52:41.450                             : en:00:52:41.450
00:59:38.950                             : en:00:59:38.950
01:09:19.781                             : en:01:09:19.781
01:15:26.230                             : en:01:15:26.230
01:22:01.125                             : en:01:22:01.125

Dostępne napisy
Brak napisów
Szczegóły torrenta
Tracker http://fr33dom.h33t.com:3310/announce
Multitracker [ Pokaż ]
Kategoria: » » » [Zgłoś błąd]
Dodane 03-10-2017
Podziękowali:
0 użytkowników 
Podziękuj!
Pokaż / Ukryj pliki:
Nazwa pliku Rozmiar
sub/Julia X (201) 3D-alE13_pl.sub 4.62 MB
sub/Julia X (201) 3D-alE13_pl.srt 36.08 KB
sub/Julia X (201) 3D-alE13_pl.idx 24.24 KB
Julia X (2011) 3D-alE13.mkv 3.51 GB
Sample.mkv 31.41 MB
vlcsnap-2013-03-24-06h01m52s57.png 5.06 MB
vlcsnap-2013-03-24-06h01m44s161.png 5.01 MB
vlcsnap-2013-03-24-06h02m36s174.png 4.64 MB
vlcsnap-2013-03-24-06h02m55s105.png 3.72 MB
vlcsnap-2013-03-24-06h01m21s250.png 2.85 MB
1.jpg 476.26 KB
txt1.jpg 144.21 KB
3.jpg 132.05 KB
okładka.jpg 72.67 KB
Torrent downloaded from alE13 torrents at BTScene.org.txt 0.12 KB
15 plików
Brak komentarzy...