Enable / Włącz Javascript
 Widok 
 Kategorie 
 Nitro Torrent w sieci 
 Top 10 użytkowników 
 Attila: Master of an Empire 3D(OU) *2013* [mini-HD.1080p.Over-Under.AC3.PLSUBBED.BluRay.x264-SONDA]

Attila: Master of an Empire 3D(OU) *2013* [mini-HD.1080p.Over-Under.AC3.PLSUBBED.BluRay.x264-SONDA]
Kategoria: » » »
Dodane: 03/10/2017
Rozmiar: 3.99 GB
Uploader: familybackpacks.com❱ Wędrowiec
seed(ów): 0
leecher(ów): 0
Pobrane: 5
Komentarzy: 0
Pobierz Torrent Pobierz Torrent
Pobierz [Magnet] Pobierz [Magnet]

Obserwuj
Raportuj

Film w wersji 3D Over-Under.
Do odtworzenia filmu WYMAGANY odpowiedni sprzęt (TV 3D)
=================================================
UWAGA: Napisy na stałe wtopione w film. Zapraszam Wszystkich chętnych !!!!!!!
=============================================================

Blu-ray http://www.blu-ray.com/movies/Attila-3D-Blu-ray/98651/


Kopia mini-HD 1080p = 3,98 GB


gatunek: Thriller,Akcja
produkcja: USA
premiera: 31 grudnia 2013 (świat)
reżyseria: Emmanuel Itier
scenariusz: Anthony C. Ferrante

Obsada:
Cheick Kongo...Nomad
Chris Conrad...Vito
Mikayla S. Campbell...Katie McVie
M. Steven Felty...General Thadeus
Phillip Andre Botello...Thomas 'Meat' Anderson

Opis:
Kiedy amerykańscy żołnierze przypadkowo znajdują tajne skarby Attyli wodza Hunów budzi się wojownik z mumii i zaczyna wybijać żołnierzy.

BluRay 3D Rip (OU) - SONDA
===========================


General
Format : Matroska
Format version : Version 2
File size : 3.99 GiB
Duration : 1h 25mn
Overall bit rate mode : Variable
Overall bit rate : 6 662 Kbps
Movie name : ATTILA_3D.Title2.Bluray3DRip by Sonda [AT-Team]
Encoded date : UTC 2014-04-11 17:09:08
Writing application : mkvmerge v5.7.0 ('The Whirlwind') built on Jul 8 2012 20:08:51
Writing library : libebml v1.2.3 + libmatroska v1.3.0

Video
ID : 1
Format : AVC
Format/Info : Advanced Video Codec
Format profile : High@L4.1
Format settings, CABAC : Yes
Format settings, ReFrames : 2 frames
Codec ID : V_MPEG4/ISO/AVC
Duration : 1h 25mn
Bit rate mode : Variable
Bit rate : 6 211 Kbps
Maximum bit rate : 40.0 Mbps
Width : 1 920 pixels
Height : 1 080 pixels
Display aspect ratio : 16:9 (1.78:1)
Frame rate mode : Constant
Frame rate : 23.976 fps
Color space : YUV
Chroma subsampling : 4:2:0
Bit depth : 8 bits
Scan type : Progressive
Bits/(Pixel*Frame) : 0.125
Stream size : 3.64 GiB (91%)
Title : BluRay 3D PLSUBBED Rip by Sonda encoding 2 pass
Writing library : x264 core
Default : Yes
Forced : No

Audio
ID : 2
Format : AC-3
Format/Info : Audio Coding 3
Mode extension : CM (complete main)
Format settings, Endianness : Big
Codec ID : A_AC3
Duration : 1h 25mn
Bit rate mode : Constant
Bit rate : 448 Kbps
Channel(s) : 6 channels
Channel positions : Front: L C R, Side: L R, LFE
Sampling rate : 48.0 KHz
Bit depth : 16 bits
Compression mode : Lossy
Stream size : 274 MiB (7%)
Title : AC3 5.1
Language : English
Default : Yes
Forced : No

Menu
00:00:00.000 : en:(01)00:00:00:000

Source:
A/V-Attila 2013 1080p 3D GER Blu-ray AVC DTS-HD MA 5.1
PLSUBBED - SONDA

UWAGA: Napisy do filmu wykonała alE13 serdeczne podziękowania
za udostępnienie THX!!!!!
=============================================

Dostępne napisy
Brak napisów
Szczegóły torrenta
Tracker http://tracker.aletorrenty.pl:2710/announce
Multitracker [ Pokaż ]
Kategoria: » » » [Zgłoś błąd]
Dodane 03-10-2017
Podziękowali:
0 użytkowników 
Podziękuj!
Pokaż / Ukryj pliki:
Nazwa pliku Rozmiar
ATTILA_3D_PLSUBBED_miniHD(Sonda).mkv 3.99 GB
398463_attila_3d_bd_picbig.jpg 250.97 KB
AT-TEAM old movie.jpg 140.78 KB
AT-TEAM.jpg 36.66 KB
Read iNFO.txt 2.07 KB
Ale Torrenty Team enjoy !.url 0.11 KB
6 plików
Brak komentarzy...